WAREZ-V3

WAREZ-BB has returned with a dedicated Staff now attending users needs in WAREZ-V3. Come as a guest. Stay as a family.

Attention Guests: Please register to view all sections

If you're experiencing log in issues please delete your cookies.
[ img ]
[ img ][ img ][ img ][ img ][ img ]


>>> Accounts Auto-Activated & Help Center <<<
Accounts are currently Auto-Activated.
(Banned / Hacked / Password Change / Login issue)
& In case of any issue, contact us via email [ [email protected] ]


>>> ATTENTION <<<
Guests, don't forget to Register (With Real Email) Old forum members, you must Register again.
Please Share Your Introduction: Click Here


>>>To Old Donators<<<
Please PM me (i am John) and I will check if you really are a Donator then I will give your Donator rank back.

[RG] Madagascar 2005 1080p BluRay x264-CiNEFiLE

  Page 1 of 1  [ 2 posts ]
Author Message
ShinX
Post subject: Madagascar 2005 1080p BluRay x264-CiNEFiLE Posted: Sun Nov 19, 2023 8:00 am
Legend Of Warez
Offline
 
Posts: 19863
Joined: Sat Oct 07, 2023 5:02 am
 
Madagascar.2005.1080p.BluRay.x264-CiNEFiLE ~ 4.37 GB
[ img ]
Synopsis: Longing to roam free in the vast landscapes of Mother Africa, Marty, the bored and dejected zebra of the famous Central Park Zoo, escapes his prison on the night of his tenth birthday celebration. However, after a botched rescue attempt by Marty's companions--Alex, the content lion; Melman, the skittish giraffe, and Gloria, the resolute hippo--the friends will find themselves crated up and shipped off to a remote wildlife preserve, only to end up on the sandy shores of exotic Madagascar. At last, Marty's dream will come true; nevertheless, what does it really mean to be a truly wild animal?
Media Name.......: Madagascar (2005)
iMDB Votes.......: 6.9/10 (426596 Votes) 
iMDB Link........: https://www.imdb.com/title/tt0351283/
Run Time.........: 86 min
Genre............: Animation, Adventure, Comedy
Country..........: United States, Canada
Language.........: English, Portuguese, Spanish, German, French, American Sign 
Writer...........: Mark Burton, Billy Frolick, Eric Darnell
Director.........: Eric Darnell, Tom McGrath
Cast.............: Chris Rock, Ben Stiller, David Schwimmer
Download From RapidGator
https://rapidgator.net/file/03c39705f63373cd2feae623767ab029/Madagascar.2005.1080p.BluRay.x264-CiNEFiLE.rar
Media iNFO
General
Unique ID                                : 201661433760710961711285973391398719107 (0x97B69452F44AB56C8918297CECE4CE83)
Complete name                            : Madagascar.2005.1080p.BluRay.x264-CiNEFiLE.mkv
Format                                   : Matroska
Format version                           : Version 1
File size                                : 4.37 GiB
Duration                                 : 1 h 25 min
Overall bit rate                         : 7 286 kb/s
Movie name                               : Madagascar.2005.1080p.BluRay.x264-CiNEFiLE
Encoded date                             : UTC 2008-09-20 15:59:21
Writing application                      : mkvmerge v2.2.0 ('Turn It On Again') built on Mar  4 2008 12:58:26
Writing library                          : libebml v0.7.7 + libmatroska v0.8.1

Video
ID                                       : 1
Format                                   : AVC
Format/Info                              : Advanced Video Codec
Format profile                           : High@L4
Format settings                          : CABAC / 4 Ref Frames
Format settings, CABAC                   : Yes
Format settings, Reference frames        : 4 frames
Codec ID                                 : V_MPEG4/ISO/AVC
Duration                                 : 1 h 25 min
Bit rate                                 : 6 642 kb/s
Width                                    : 1 920 pixels
Height                                   : 1 080 pixels
Display aspect ratio                     : 16:9
Frame rate mode                          : Constant
Frame rate                               : 23.976 FPS
Color space                              : YUV
Chroma subsampling                       : 4:2:0
Bit depth                                : 8 bits
Scan type                                : Progressive
Bits/(Pixel*Frame)                       : 0.134
Stream size                              : 3.90 GiB (89%)
Writing library                          : x264 core 61 r957 7ce0f2c
Encoding settings                        : cabac=1 / ref=4 / deblock=1:0:0 / analyse=0x3:0x113 / me=umh / subme=6 / brdo=1 / mixed_ref=1 / me_range=16 / chroma_me=1 / trellis=1 / 8x8dct=1 / cqm=0 / deadzone=21,11 / chroma_qp_offset=0 / threads=6 / nr=0 / decimate=1 / mbaff=0 / bframes=3 / b_pyramid=1 / b_adapt=1 / b_bias=0 / direct=1 / wpredb=1 / bime=1 / keyint=250 / keyint_min=25 / scenecut=40(pre) / rc=2pass / bitrate=6642 / ratetol=1.0 / qcomp=1.00 / qpmin=10 / qpmax=51 / qpstep=4 / cplxblur=20.0 / qblur=0.5 / ip_ratio=1.40 / pb_ratio=1.30 / aq=2:1.00
Language                                 : English
Default                                  : Yes
Forced                                   : No

Audio
ID                                       : 2
Format                                   : AC-3
Format/Info                              : Audio Coding 3
Commercial name                          : Dolby Digital
Codec ID                                 : A_AC3
Duration                                 : 1 h 25 min
Bit rate mode                            : Constant
Bit rate                                 : 640 kb/s
Channel(s)                               : 6 channels
Channel layout                           : L R C LFE Ls Rs
Sampling rate                            : 48.0 kHz
Frame rate                               : 31.250 FPS (1536 SPF)
Compression mode                         : Lossy
Stream size                              : 393 MiB (9%)
Language                                 : English
Service kind                             : Complete Main
Default                                  : Yes
Forced                                   : No

Text
ID                                       : 3
Format                                   : UTF-8
Codec ID                                 : S_TEXT/UTF8
Codec ID/Info                            : UTF-8 Plain Text
Language                                 : English
Default                                  : No
Forced                                   : No

ScreenShot
[ img ]

Last edited by Polylak on Sun Feb 25, 2024 5:55 pm, edited 1 time in total.
Dead link. Binned

_________________

I'm unable to respond to any private messages at the moment due to a site-imposed 24-minutes posting/PMing gap.


Top
tbbttbbt
Post subject: Re: Madagascar 2005 1080p BluRay x264-CiNEFiLE Posted: Sun Feb 25, 2024 5:52 pm
Little Baby
Offline
 
Posts: 1
Joined: Sun Feb 25, 2024 5:50 pm
 
Well... thank you for sharing but unfortunately it's offline by now again.


Top
  Page 1 of 1  [ 2 posts ]
Return to “Graveyard”
 Similar Topics   Author   Replies   Views   Last post 
The Madagascar Penguins In A Christmas Caper (2005) [1080p] [BluRay] [5 1] [YTS Mx]

in Movies

ChromeRazu

0

10

Thu Nov 02, 2023 6:34 am

ChromeRazu View the latest post

The Madagascar Penguins In A Christmas Caper (2005) 1080p BluRay 5 1-LAMA

in Movies

alie24

0

2

Mon Feb 12, 2024 6:39 am

alie24 View the latest post

Madagascar 2005 1080p BluRay DDP 5 1 H 265 -iVy

in Movies

toxicweasel

0

8

Sun Mar 03, 2024 12:45 am

toxicweasel View the latest post

The Madagascar Penguins In A Christmas Caper (2005) [720p] [BluRay] [YTS Mx]

in Movies

ChromeRazu

0

8

Thu Nov 02, 2023 6:45 am

ChromeRazu View the latest post

The.Madagascar.Penguins.In.A.Christmas.Caper.2005.1080p.BRRip.H264.AAC-RBG

in Movies

ShinX

0

2

Tue Feb 20, 2024 8:16 am

ShinX View the latest post


Jump to:
New posts New posts
No new posts No new posts
Forum is locked Forum is locked